Матильда фильм 2018 рутрекер

Закрыть ... [X]

Матильда
Страна: Россия
Студия: ТПО Рок
Жанр: драма, история, триллер
Год выпуска: 2017
Продолжительность: 01:48:37
Субтитры: нет Режиссер: Алексей Учитель В ролях: Михалина Ольшанска, Ларс Айдингер, Данила Козловский, Луиза Вольфрам, Ингеборга Дапкунайте, Сергей Гармаш, Евгений Миронов, Григорий Добрыгин, Галина Тюнина, Виталий Коваленко, Виталий Кищенко, Томас Остермайер, Сара Штерн, Гэ Ян, Сергей Малюгов, Степан Пивкин, Константин Желдин, Роман Шаляпин Описание: Последний русский император и балерина, утвердившая славу русского балета. Страсть, которая могла изменить русскую историю. Любовь, ставшая легендой. В жизни каждого человека случаются несколько дней, которые могут изменить её навсегда. Когда происходит самое главное. Ты оборачиваешься на голос любви. И делаешь выбор. Но если властитель империи полюбит танцовщицу, сводящую с ума своей красотой… Успенский собор, Кремль, Ходынское поле, царские дворцы, сцены Мариинского и Большого театров — там, где бьется сердце вечной России. Тип релиза: WEB-DLRip
Контейнер: AVI
Видео: 720x304 (2.37:1), 23.976 fps, XviD build 73 1531 kbps avg, 0.29 bit/pixel
Аудио: 48 kHz, AC3 Dolby Digital, 3/2 (L,C,R,l,r) + LFE ch, 384 kbps Скачать сэмпл

MediaInfo

Код:

Format                      : AVI
Format/Info                 : Audio Video Interleave
File size                   : 1.46 GiB
Duration                    : 1 h 48 min
Overall bit rate            : 1 925 kb/s
Writing application         : VirtualDubMod 1.5.10.3 | www.virtualdub-fr.org || (build 2550/release)
Writing library             : VirtualDubMod build 2550/release
Video
ID                          : 0
Format                      : MPEG-4 Visual
Format profile              : Advanced Simple@L5
Format settings             : BVOP1 / Custom Matrix
Format settings, BVOP       : 1
Format settings, QPel       : No
Format settings, GMC        : No warppoints
Format settings, Matrix     : Custom
Codec ID                    : XVID
Codec ID/Hint               : XviD
Duration                    : 1 h 48 min
Bit rate                    : 1 531 kb/s
Width                       : 720 pixels
Height                      : 304 pixels
Display aspect ratio        : 2.35:1
Frame rate                  : 23.976 (24000/1001) FPS
Color space                 : YUV
Chroma subsampling          : 4:2:0
Bit depth                   : 8 bits
Scan type                   : Progressive
Compression mode            : Lossy
Bits/(PixelFrame)          : 0.292
Stream size                 : 1.16 GiB (80%)
Writing library             : XviD 73
Audio
ID                          : 1
Format                      : AC-3
Format/Info                 : Audio Coding 3
Format settings, Endianness : Big
Codec ID                    : 2000
Duration                    : 1 h 48 min
Bit rate mode               : Constant
Bit rate                    : 384 kb/s
Channel(s)                  : 6 channels
матильда фильм 2018 рутрекер Channel positions           : Front: L C R, Side: L R, LFE
Sampling rate               : 48.0 kHz
Frame rate                  : 31.250 FPS (1536 SPF)
Bit depth                   : 16 bits
Compression mode            : Lossy
Stream size                 : 298 MiB (20%)
Alignment                   : Split accross interleaves
Interleave, duration        : 42  ms (1.00 video frame)
Interleave, preload duratio : 500  ms
Service kind                : Complete Main

Скриншоты

Download

Сайт не распространяет и не хранит электронные версии произведений, а лишь предоставляет доступ к создаваемому пользователями каталогу ссылок на торрент-файлы, которые содержат только списки хеш-сумм

Ура!!! А то совсем заждалися..

Где-то заплакала одна Поклонская...

бохнакажет?

Сейчас как согрешу...поставила на закачку.

alalpavlov писал(а):

74356664бохнакажет?

не сцы! за токое не накажет

Боха нет....

Этот фильм оскорбил мои чувства. Поэтому иду смотреть.

jet1986 писал(а):

74357439Этот фильм оскорбил мои чувства. Поэтому иду смотреть.

Спасибо за фильм!Главное не историческая достоверность, а передача эмоций,чувств,настроения,история любви,одержимости показана на отлично,Алексей Учитель,действительно заслуживает всяческих похвал и уважения.А женщины вне брака(фаворитки,музы)всегда и во всех странах, были рядом с монаршими особами и это хорошо и полезно для сохранения государства и семьи. И не надо из простого человека,пусть даже царя,с его человеческими слабостями,делать "безупречную" святую личность,все мы грешны,,,,,

страсть? одержимость? уж полчаса смотрю, а эмоций не вызывает. пресная лепешка... много шума из ничего.

наконец-то оскорблюсь...

Всем удачного оскорбления чувств!

Невероятная шедевральная тягомотина уровня УГ, которую без та6летки цитрамона смотреть невозможно

Мне сперва так чо-то понравился этот актёр немецкий, такой, мол, шикарный мужик. Только из-за него хотела смотреть. А теперь чо-то разонравился, и смотреть не хочу, ибо чую, что тупо бездарная мелодрама, и не стоит моего времени. Так что, этого греха уж точно не будет на моей святой душе, и Поклонская может спать спокойно.

Kunidas писал(а):

74357420Боха нет....

хах,есть еще народ без засранных мозгов))) Всем скачавшим завтра срочно свечки ставить, чем больше, тем лучше!!!

Скорее полячку Матильду спасать надо.
Уж очень на Сусанну Моисеевну из Чеховской Тины смахивает.

Дурацкий фильм....

Много шума из ничего. Всякого можно было ждать, НО... Оказалось, это просто какая-то пустая пресная нудятина. Жаль потраченного времени.

Да... Если бы не ломали копий и не ложились грудями на амбразуры, кто бы досмотрел это до конца?

Учитель и Няша - красавцы! Такой пиар соорудили для этого выкидыша!

фильм — пустышка ни о чём. денег больше не давать, всех разогнать. и имеем факт рекламы, причем недобросовестной рекламы от депутатши госдумы. должна бы теперь мандатом ответить за обман.

"Культура" лиц либеральной национальности, все эти пусси-райоты, сребренниковы. учителя - деградирует с геометрической прогрессией.
Учителю надо перечитать Рассказ Антона Павловича Чехова - "Перекати поле".
Учителей-выкрестов в Наши Русские школы не подпускали на пушечный выстрел.

Редкостная муть. Я не понимаю, почему раздули такую шумиху вокруг этого фильма. Да, красиво, актёры вроде бы пытаются играть, но личная жизнь Николая слишком очернена, как мне кажется.

После столь дикого пиара просто грех не посмотреть хотя бы пол-часа...

Просто не буду смотреть - тема неинтересная и неактуальная вообще.

Rustam_fulcrum писал(а):

74356658Где-то заплакала одна Поклонская...

Такие как она не плачут, если не заплатят...(к актерской братии она не относиться)

violet. писал(а):

74360297Много шума из ничего. Всякого можно было ждать, НО... Оказалось, это просто какая-то пустая пресная нудятина. Жаль потраченного времени.

+1 - глянул и вообще не понял "что это было"... если бы не Поклонская - это фильм наверное был бы всеми забыт уже через неделю после выхода.
Источник: http://RuTracker.org/forum/viewtopic.php?t=5488902


Поделись с друзьями



Рекомендуем посмотреть ещё:



Фильм матильда смотреть онлайн бесплатно в хорошем качестве HD
Смотреть фильмы о космосе в хорошем качестве 2018Как перезагрузить а5 самсунг 2018Новый актер в человеке пауке 2018Рыбалка в новой ладоге 2018Прогноз по нефти на июль 2018


Матильда фильм 2018 рутрекер Матильда фильм 2018 рутрекер Матильда фильм 2018 рутрекер Матильда фильм 2018 рутрекер Матильда фильм 2018 рутрекер Матильда фильм 2018 рутрекер Матильда фильм 2018 рутрекер Матильда фильм 2018 рутрекер Матильда фильм 2018 рутрекер


ШОКИРУЮЩИЕ НОВОСТИ